Login
Username:
Password:
[Signup]
[Recover Account]


Browse Torrents

Poll


You must be logged in to view polls



Latest Torrents
Cardinal.S03E05.72...
- [Size: 621.77 MB]

Cardinal.S03E05.HD...
- [Size: 180.40 MB]

Cardinal.S03E05.72...
- [Size: 623.46 MB]

Cardinal.S03E05.HD...
- [Size: 179.73 MB]

Brooklyn.Nine-Nine...
- [Size: 137.46 MB]


Torrent Details For "Andhadhun 2018 Hindi 720p BluRay x264 ESub [MW]"

Andhadhun 2018 Hindi 720p BluRay x264 ESub [MW]

Download this torrent | Magnet Download
Health:
Seeds: 48
Leechers: 186
Completed: 39 
Last Checked: 10-02-2019 11:24:34
External Torrent
Update Stats



Images Host

Poster
No poster


Watch-Free-HD     Download

Details
Name:Andhadhun 2018 Hindi 720p BluRay x264 ESub [MW]
Description:

 


General
Format                                   : Matroska
Format version                           : Version 4
File size                                : 1.28 GiB
Duration                                 : 2 h 19 min
Overall bit rate                         : 1 310 kb/s

Video
ID                                       : 1
Format                                   : AVC
Format/Info                              : Advanced Video Codec
Format profile                           : [email protected]
Format settings                          : CABAC / 4 Ref Frames
Format settings, CABAC                   : Yes
Format settings, RefFrames               : 4 frames
Codec ID                                 : V_MPEG4/ISO/AVC
Duration                                 : 2 h 19 min
Bit rate                                 : 1 200 kb/s
Width                                    : 1 280 pixels
Height                                   : 544 pixels
Display aspect ratio                     : 2.35:1
Frame rate mode                          : Constant
Frame rate                               : 24.000 FPS
Color space                              : YUV
Chroma subsampling                       : 4:2:0
Bit depth                                : 8 bits
Scan type                                : Progressive
Bits/(Pixel*Frame)                       : 0.072
Stream size                              : 1.15 GiB (90%)
Writing library                          : x264 core 157 r2935 545de2f

Audio
ID                                       : 2
Format                                   : AAC LC
Codec ID                                 : A_AAC-2
Duration                                 : 2 h 19 min
Bit rate                                 : 126 kb/s
Channel(s)                               : 2 channels
Channel layout                           : L R
Sampling rate                            : 48.0 kHz
Frame rate                               : 46.875 FPS (1024 SPF)
Compression mode                         : Lossy
Stream size                              : 126 MiB (10%)
Language                                 : Hindi
Default                                  : Yes
Forced                                   : No

Text
ID                                       : 3
Format                                   : UTF-8
Codec ID                                 : S_TEXT/UTF8
Codec ID/Info                            : UTF-8 Plain Text
Duration                                 : 2 h 6 min
Bit rate                                 : 40 b/s
Count of elements                        : 1184
Stream size                              : 37.9 KiB (0%)
Default                                  : Yes
Forced                                   : No


Click To View Image

 http://pichub.site/image/kLIoI
 http://pichub.site/image/kLahg
 http://pichub.site/image/kLOWX
 http://pichub.site/image/kLSV8
 http://pichub.site/image/kLDUJ
 http://pichub.site/image/kLE15

Category:Movies > Bollywood
Lang:Hindi
Total Size:1.28 GB
Info Hash:af058d647a6ff7b9015c47785a1232cddb422e27
Added By:Freaky
Date Added:10-02-2019 09:31:30
Downloads:263

Ratings:Not Yet Rated (Log in to rate it)


Tracker:
udp://tracker.coppersurfer.tk:6969/announce


File List: 


Comments

No comments still posted

Top
Copyright 2018 DownloadHD -|- Page Generated In 3.314626 secs.
-|- RSS Feed -|- Feed Info