Login
Username:
Password:
[Signup]
[Recover Account]


Browse Torrents

Poll


You must be logged in to view polls



Latest Torrents
How.Its.Made.S32E0...
- [Size: 484.30 MB]

S.W.A.T.2017.S02E1...
- [Size: 307.06 MB]

S.W.A.T.2017.S02E1...
- [Size: 988.33 MB]

The.Favourite.2018...
- [Size: 927.98 MB]

The.Orville.S02E08...
- [Size: 508.97 MB]


Torrent Details For "Race 2 (2013) Hindi 720p WEB-DL x264 AAC ESub-Sun George (Requested)"

Race 2 (2013) Hindi 720p WEB-DL x264 AAC ESub-Sun George (Requested)

Download this torrent | Magnet Download
Health:
Seeds: 212
Leechers: 82
Completed: 677 
Last Checked: 13-02-2019 00:53:59
External Torrent
Update Stats



Images Host

Poster


iMDB
Imdb Picture Title: Race 2
Year: 2013
Runtime: 150 minutes
Votes: 12681
Rating: 5.2/10
Language: Hindi
Country: India
All Genres: Action, Crime, Thriller
Plot Outline: Ranvir treads through the world of the Indian mafia in Turkey as he looks to avenge the death of his lover and partner in crime.
Tagline: Betrayal is survival.
Director: Abbas Alibhai Burmawalla
Mastan Alibhai Burmawalla
Writing By: Shiraz Ahmed,Kiran Kotrial,
Produced By: Jay Shewakramani,Kumar Sadhuram Taurani,Ramesh Sadhuram Taurani,
Music: Pritam Chakraborty
Cast:
Anil Kapoor as Inspector Robert D'Costa
Saif Ali Khan as Ranvir Singh
Jacqueline Fernandez as Omisha
Deepika Padukone as Alina
Ameesha Patel as Cherry
John Abraham as Armaan Mallik
Aditya Pancholi as Godfather
Rajesh Khattar as Vikram Thapar
Mohammed S. Burmawala as
Ilhan Kizilkaya as
Trailers:
Theatrical Version


Watch-Free-HD     Download

Details
Name:Race 2 (2013) Hindi 720p WEB-DL x264 AAC ESub-Sun George (Requested)
Description:
Race 2 (2013) Hindi 720p WEB-DL x264 AAC ESub-Sun George (Requested)









 


 






===================================================================

General
Format                      : Matroska
Format version              : Version 4 / Version 2
File size                   : 1.62 GiB
Duration                    : 2 h 22 min
Overall bit rate            : 1 620 kb/s
Movie name : Race 2 (2013) Hindi 720p WEB-DL x264 AAC ESub-Sun George (Requested)

===================================================================

Video
ID                          : 1
Format                      : AVC
Format/Info                 : Advanced Video Codec
Format profile              : [email protected]
Format settings             : CABAC / 5 Ref Frames
Format settings, CABAC      : Yes
Format settings, ReFrames   : 5 frames
Codec ID                    : V_MPEG4/ISO/AVC
Duration                    : 2 h 22 min
Bit rate                    : 1 500 kb/s
Width                       : 1 280 pixels
Height                      : 720 pixels
Display aspect ratio        : 16:9
Frame rate mode             : Constant
Frame rate                  : 24.000 FPS
Color space                 : YUV
Chroma subsampling          : 4:2:0
Bit depth                   : 8 bits
Scan type                   : Progressive
Bits/(Pixel*Frame)          : 0.068
Stream size                 : 1.49 GiB (92%)
Title                       : Sun George

===================================================================

Audio
ID                          : 2
Format                      : AAC LC
Format/Info                 : Advanced Audio Codec Low Complexity
Codec ID                    : A_AAC-2
Duration                    : 2 h 22 min
Bit rate                    : 125 kb/s
Channel(s)                  : 2 channels
Channel layout              : L R
Sampling rate               : 48.0 kHz
Frame rate                  : 46.875 FPS (1024 SPF)
Compression mode            : Lossy
Stream size                 : 128 MiB (8%)
Title                       : Sun George
Language                    : Hindi
Default                     : Yes
Forced                      : No

Text
ID                          : 3
Format                      : UTF-8
Codec ID                    : S_TEXT/UTF8
Codec ID/Info               : UTF-8 Plain Text
Duration                    : 2 h 14 min
Bit rate                    : 42 b/s
Count of elements           : 1534
Stream size                 : 42.4 KiB (0%)
Title                       : Sun George
Language                    : English
Default                     : Yes
Forced                      : Yes




 

 

 

 

 

 

 

 

 

 

 

 

 

 

 
Category:Movies > Bollywood
Lang:Hindi
Total Size:1.64 GB
Info Hash:735c3b429734288ced259498626543848221d350
Added By:sungeorge
Date Added:11-02-2019 14:20:21
Downloads:224

Ratings:Not Yet Rated (Log in to rate it)


Tracker:
udp://tracker.pirateparty.gr:6969/announce

This Torrent also has backup trackers
URLSeedersLeechersCompleted
http://tracker.torrentyorg.pl:80/announce000
http://tracker.fastdownload.xyz:443/announce1670
http://vps02.net.orel.ru:80/announce18945


File List: 


Comments

No comments still posted

Top
Copyright 2018 DownloadHD -|- Page Generated In 2.052314 secs.
-|- RSS Feed -|- Feed Info